Overlord เป็นเรื่องราวของกลุ่มทหารอเมริกา ที่อยู่ฝ่ายสัมพันธมิตร ในช่วงสงครามโลกครั้งที่ 2
พวกเขาได้รับมอบหมายให้ไปถล่มหอส่งวิทยุที่อยู่ในหมู ่บ้านแห่งหนึ่งในฝรั่งเศสที่ทหารเยอรมันยึดครองอยู่ ความโชคร้ายเกิดขึ้น
เมื่อพวกเขาเข้าไปในหมู่บ้านท่ามกลางสมรภูมิที่กำลัง เดือด และพบว่าใต้ฐานทัพนั้นเองมีการทดลองลับของฝ่ายนาซีอย ู่ นำพาความสะพรึง สยดสยองมาสู่คนดู
ถ้าหากอยากสนุกจงหลบสปอยล์ไว้ให้มั่น เข้าไปดูแบบไม่รู้เรื่องอะไรทั้งสิ้นจะเพิ่มดีกรีควา มผวาเข้าไปอีกขั้น!!!



General
Unique ID : 171633784734522010390478165829442469711 (0x811F76ECACC86830100D6CAF063DFF4F)
Complete name : F:VideoOverlord.2018.1080p.BluRay.x264.DTS-HD.MA.7.1+TrueHD.7.1.Atmos-.mkv
Format : Matroska
Format version : Version 4
File size : 15.9 GiB
Duration : 1 h 49 min
Overall bit rate mode : Variable
Overall bit rate : 20.8 Mb/s
Movie name : Overlord.2018.1080p.BluRay.x264.TrueHD.7.1.Atmos-FGT
Encoded date : UTC 2019-02-11 03:33:59
Writing application : mkvmerge v31.0.0 ( Dolores In A Shoestand ) 64-bit
Writing library : libebml v1.3.6 + libmatroska v1.4.9
Cover : Yes
Attachments : small_cover.jpg / small_cover_land.jpg / cover.jpg / cover_land.jpg

Video
ID : 1
Format : AVC
Format/Info : Advanced Video Codec
Format profile : [email protected]
Format settings : CABAC / 5 Ref Frames
Format settings, CABAC : Yes
Format settings, RefFrames : 5 frames
Codec ID : V_MPEG4/ISO/AVC
Duration : 1 h 49 min
Bit rate : 9 717 kb/s
Width : 1 920 pixels
Height : 800 pixels
Display aspect ratio : 2.40:1
Frame rate mode : Constant
Frame rate : 23.976 (24000/1001) FPS
Color space : YUV
Chroma subsampling : 4:2:0
Bit depth : 8 bits
Scan type : Progressive
Bits/(Pixel*Frame) : 0.264
Stream size : 7.45 GiB (47%)
Title : Overlord.2018.1080p.BluRay.x264.TrueHD.7.1.Atmos-FGT
Writing library : x264 core 157 r2935 545de2f
Encoding settings : cabac=1 / ref=5 / deblock=1:-3:-3 / analyse=0x3:0x113 / me=umh / subme=8 / psy=1 / psy_rd=1.00:0.00 / mixed_ref=1 / me_range=16 / chroma_me=1 / trellis=1 / 8x8dct=1 / cqm=0 / deadzone=21,11 / fast_pskip=1 / chroma_qp_offset=-2 / threads=24 / lookahead_threads=4 / sliced_threads=0 / nr=0 / decimate=1 / interlaced=0 / bluray_compat=0 / constrained_intra=0 / bframes=3 / b_pyramid=2 / b_adapt=1 / b_bias=0 / direct=3 / weightb=1 / open_gop=0 / weightp=2 / keyint=250 / keyint_min=23 / scenecut=40 / intra_refresh=0 / rc_lookahead=50 / rc=2pass / mbtree=1 / bitrate=9717 / ratetol=1.0 / qcomp=0.60 / qpmin=0 / qpmax=69 / qpstep=4 / cplxblur=20.0 / qblur=0.5 / ip_ratio=1.40 / aq=1:1.00
Language : English
Default : Yes
Forced : No

Audio #1
ID : 2
Format : MLP FBA 16-ch
Format/Info : Meridian Lossless Packing FBA with 16-channel presentation
Commercial name : Dolby TrueHD with Dolby Atmos
Codec ID : A_TRUEHD
Duration : 1 h 49 min
Bit rate mode : Variable
Bit rate : 4 722 kb/s
Maximum bit rate : 8 355 kb/s
Channel(s) : 8 channels
Channel layout : L R C LFE Ls Rs Lb Rb
Sampling rate : 48.0 kHz
Frame rate : 1 200.000 FPS (40 SPF)
Compression mode : Lossless
Stream size : 3.62 GiB (23%)
Title : Overlord.2018.1080p.BluRay.x264.TrueHD.7.1.Atmos-FGT
Language : English
Default : Yes
Forced : No
Number of dynamic objects : 11
Bed channel count : 1 channel
Bed channel configuration : LFE

Audio #2
ID : 3
Format : AC-3
Format/Info : Audio Coding 3
Commercial name : Dolby Digital
Codec ID : A_AC3
Duration : 1 h 49 min
Bit rate mode : Constant
Bit rate : 640 kb/s
Channel(s) : 6 channels
Channel layout : L R C LFE Ls Rs
Sampling rate : 48.0 kHz
Frame rate : 31.250 FPS (1536 SPF)
Bit depth : 16 bits
Compression mode : Lossy
Stream size : 503 MiB (3%)
Title : Overlord.2018.1080p.BluRay.x264.TrueHD.7.1.Atmos-FGT
Language : English
Service kind : Complete Main
Default : No
Forced : No

Audio #3
ID : 8
Format : DTS XLL
Format/Info : Digital Theater Systems
Commercial name : DTS-HD Master Audio
Codec ID : A_DTS
Duration : 1 h 49 min
Bit rate mode : Variable
Bit rate : 4 021 kb/s
Channel(s) : 8 channels
Channel layout : C L R LFE Lb Rb Lss Rss
Sampling rate : 48.0 kHz
Frame rate : 93.750 FPS (512 SPF)
Bit depth : 24 bits
Compression mode : Lossless
Stream size : 3.08 GiB (19%)
Title : Overlord.2018.1080p.BluRay.x264.DTS-HD.MA.7.1-FGT
Language : English
Default : No
Forced : No

Audio #4
ID : 9
Format : E-AC-3
Format/Info : Enhanced AC-3
Commercial name : Dolby Digital Plus
Codec ID : A_EAC3
Duration : 1 h 49 min
Bit rate mode : Constant
Bit rate : 640 kb/s
Channel(s) : 6 channels
Channel layout : L R C LFE Ls Rs
Sampling rate : 48.0 kHz
Frame rate : 31.250 FPS (1536 SPF)
Compression mode : Lossy
Delay relative to video : 800 ms
Stream size : 502 MiB (3%)
Language : English
Service kind : Complete Main
Default : No
Forced : No

Audio #5
ID : 10
Format : AAC LC
Format/Info : Advanced Audio Codec Low Complexity
Codec ID : A_AAC-2
Duration : 1 h 49 min
Bit rate : 192 kb/s
Channel(s) : 2 channels
Channel layout : L R
Sampling rate : 48.0 kHz
Frame rate : 46.875 FPS (1024 SPF)
Compression mode : Lossy
Delay relative to video : 800 ms
Stream size : 151 MiB (1%)
Title : Thai
Language : Thai
Default : No
Forced : No

Audio #6
ID : 11
Format : AC-3
Format/Info : Audio Coding 3
Commercial name : Dolby Digital
Codec ID : A_AC3
Duration : 1 h 49 min
Bit rate mode : Constant
Bit rate : 384 kb/s
Channel(s) : 6 channels
Channel layout : L R C LFE Ls Rs
Sampling rate : 48.0 kHz
Frame rate : 31.250 FPS (1536 SPF)
Bit depth : 16 bits
Compression mode : Lossy
Delay relative to video : 800 ms
Stream size : 301 MiB (2%)
Title : English
Language : English
Service kind : Complete Main
Default : No
Forced : No

Audio #7
ID : 12
Format : AC-3
Format/Info : Audio Coding 3
Commercial name : Dolby Digital
Codec ID : A_AC3
Duration : 1 h 49 min
Bit rate mode : Constant
Bit rate : 384 kb/s
Channel(s) : 2 channels
Channel layout : L R
Sampling rate : 48.0 kHz
Frame rate : 31.250 FPS (1536 SPF)
Bit depth : 16 bits
Compression mode : Lossy
Delay relative to video : 800 ms
Stream size : 301 MiB (2%)
Language : Thai
Service kind : Complete Main
Default : No
Forced : No

Text #1
ID : 4
Format : UTF-8
Codec ID : S_TEXT/UTF8
Codec ID/Info : UTF-8 Plain Text
Duration : 1 h 4 min
Bit rate : 4 b/s
Count of elements : 91
Stream size : 1.99 KiB (0%)
Title : English-FORCED-SRT
Language : English
Default : Yes
Forced : Yes

Text #2
ID : 5
Format : UTF-8
Codec ID : S_TEXT/UTF8
Codec ID/Info : UTF-8 Plain Text
Duration : 1 h 42 min
Bit rate : 36 b/s
Count of elements : 1034
Stream size : 27.6 KiB (0%)
Title : English-SRT
Language : English
Default : No
Forced : No

Text #3
ID : 6
Format : UTF-8
Codec ID : S_TEXT/UTF8
Codec ID/Info : UTF-8 Plain Text
Duration : 1 h 42 min
Bit rate : 49 b/s
Count of elements : 1447
Stream size : 37.0 KiB (0%)
Title : English-SDH-SRT
Language : English
Default : No
Forced : No

Text #4
ID : 7
Format : PGS
Muxing mode : zlib
Codec ID : S_HDMV/PGS
Codec ID/Info : Picture based subtitle format used on BDs/HD-DVDs
Duration : 1 h 42 min
Bit rate : 9 165 b/s
Count of elements : 2034
Stream size : 6.70 MiB (0%)
Language : English
Default : No
Forced : No

Text #5
ID : 13
Format : PGS
Muxing mode : zlib
Codec ID : S_HDMV/PGS
Codec ID/Info : Picture based subtitle format used on BDs/HD-DVDs
Duration : 1 h 42 min
Bit rate : 20.2 kb/s
Count of elements : 1754
Stream size : 14.8 MiB (0%)
Language : Thai
Default : No
Forced : No

Text #6
ID : 14
Format : PGS
Muxing mode : zlib
Codec ID : S_HDMV/PGS
Codec ID/Info : Picture based subtitle format used on BDs/HD-DVDs
Duration : 1 h 42 min
Bit rate : 11.8 kb/s
Count of elements : 1756
Stream size : 8.61 MiB (0%)
Language : Thai
Default : No
Forced : No

Text #7
ID : 15
Format : PGS
Muxing mode : zlib
Codec ID : S_HDMV/PGS
Codec ID/Info : Picture based subtitle format used on BDs/HD-DVDs
Duration : 1 h 42 min
Bit rate : 13.5 kb/s
Count of elements : 1756
Stream size : 9.87 MiB (0%)
Language : Thai
Default : No
Forced : No

Text #8
ID : 16
Format : PGS
Muxing mode : zlib
Codec ID : S_HDMV/PGS
Codec ID/Info : Picture based subtitle format used on BDs/HD-DVDs
Duration : 1 h 49 min
Bit rate : 11.4 kb/s
Count of elements : 1760
Stream size : 8.99 MiB (0%)
Language : Thai
Default : No
Forced : No

Menu
00:00:00.000 : en:Chapter 01
00:06:31.099 : en:Chapter 02
00:13:47.493 : en:Chapter 03
00:20:31.313 : en:Chapter 04
00:26:27.795 : en:Chapter 05
00:34:08.964 : en:Chapter 06
00:41:10.593 : en:Chapter 07
00:48:41.377 : en:Chapter 08
00:55:50.889 : en:Chapter 09
01:03:21.464 : en:Chapter 10
01:10:28.599 : en:Chapter 11
01:17:21.887 : en:Chapter 12
01:25:47.601 : en:Chapter 13
01:32:19.159 : en:Chapter 14
01:38:48.464 : en:Chapter 15
01:42:39.195 : en:Chapter 16


Download: cornfile
http://cornfile.com/c41jgj0numpx
Download: mekafile
http://www.mekafile.com/dl.php?f=7N4f1dbQdZz9