+ Reply to Thread
Results 1 to 3 of 3
  1. #1
    Administrators Duckload.us's Avatar
    Join Date
    Dec 2010
    Posts
    98,634
    Thanks
    9
    Thanked 100,048 Times in 47,980 Posts

    Question [ฝรั่ง]-[#ใหม่!] Iceman: The Time Traveller (2018) ไอซ์แมน 2 #[เสียงไทยโรงครบ!] : [พากย์ไทยโรง 2.0 + เสียงจีน 5.1] : [1080p ฺBluRay] : [Modified] : [ไฟล์เล็กพริกขี้หนู!] #By Scarlett98



    Iceman: The Time Traveller (2018) ไอซ์แมน 2
    #ใหม่ชนโรงร้อนๆ! ภาพชัดระดับมาสเตอร์ เสียงไทยโรงครบ!

    Iceman: The Time Traveller (2018) ไอซ์แมน 2
    #เรื่องย่อ : ในยุคราชวงศ์หมิง พี่น้องทั้ง 4 คน เติบโตมาในหมู่บ้านเต๋าหยวน ทั้ง 4 ได้ฝึกวิทยายุทธจนก้าวขึ้นมาเป็นราชองรักษ์ชั้นสูง แต่เมื่อเกิดเหตุให้ทั้งสี่แตกคอกัน ทำให้เกิดการต่อสู้ที่รุนแรงจนทำให้ปฐพีสั่นสะเทือนแ ละหิมะได้ถล่มลงมาทับร่างพวกเขา เวลาผ่านไปกว่า 400 ปี ทั้ง 4 คนได้ฟื้นคืนสติขึ้นมาและต้องมาห้ำหั่นกันอีกครั้ง เหอหยิง (ดอนนี่ เยน) ได้เรียนรู้ว่าเขาได้กลายเป็นกบฏต่อประเทศชาติจากการ บิดเบือนของประวัติศาสตร์ เขาจึงต้องพยายามออกตามให้วงล้อแห่งกาลเวลา เครื่องมือที่ว่ากันว่าสามารถเดินทางข้ามเวลาได้

    เซา (หวังเป่าเฉียง) และ หนี่ฮู (คัง ยู) ยังคงฝังใจเรื่องการแตกคอ เขาจึงออกไล่ล่าเหอหยิง จนกระทั่งในที่สุดทั้ง 3 ได้ปะทะกันบนสะพานสิ่งหมา การต่อสู้นั้นรุนแรงและดุเดือดจนกลายเป็นที่กล่าวขวั ญไปทั่วประเทศ เหอหยิงได้รับบาดเจ็บและตกลงไปจากสะพานโดยที่ไม่รู้ช ะตากรรม แต่ในที่สุด หยวนหลง (เยิ่นต๊ะหัว) พี่ชายคนโตที่ฟื้นจากการแช่แข็งก่อนหน้าเหอหยิง 16 ปี ได้ใช้อำนาจทางกรมตำรวจตามหาเหอหยิงจนเจอ

    เมื่อทั้งสองได้พบกัน หยวนหลง บอกกับ เหอหยิง ว่าหมู่บ้านเต๋าหยวนที่พวกเขาได้เติบโตมานั้นได้ถูกท ำลายอย่างย่อยยับ เหอหยิงเศร้าโศกกับอดีตที่ตนเองแก้ไขไม่ได้ เขาจึงร่วมมือกับ หยวนหลง ตามหาวงล้อแห่งกาลเวลาและใช้มันเพื่อกลับไปเปลี่ยนแป ลงประวัติศาสตร์ โดยที่เขาเองไม่รู้เลยว่านี่คือกับดักที่ หยวนหลง ได้วางแผนเอาไว้ !!!

    Video
    ID : 1
    Format : AVC
    Format/Info : Advanced Video Codec
    Format profile : [email protected]
    Format settings : CABAC / 4 Ref Frames
    Format settings, CABAC : Yes
    Format settings, RefFrames : 4 frames
    Codec ID : V_MPEG4/ISO/AVC
    Duration : 1 h 27 min
    Bit rate : 2 500 kb/s
    Width : 1 920 pixels
    Height : 802 pixels
    Display aspect ratio : 2.40:1
    Frame rate mode : Constant
    Frame rate : 24.000 FPS
    Color space : YUV
    Chroma subsampling : 4:2:0
    Bit depth : 8 bits
    Scan type : Progressive
    Bits/(Pixel*Frame) : 0.068
    Stream size : 1.52 GiB (75%)
    Title : Iceman.The.Time.Traveller.2018.CHINESE.1080p.BluRa y.x264.AC3.THR2.0_Scarlett98
    Writing library : x264 core 152 r2851M ba24899
    Encoding settings : cabac=1 / ref=4 / deblock=1:-1:-1 / analyse=0x3:0x113 / me=umh / subme=9 / psy=1 / psy_rd=1.00:0.15 / mixed_ref=1 / me_range=24 / chroma_me=1 / trellis=2 / 8x8dct=1 / cqm=0 / deadzone=21,11 / fast_pskip=1 / chroma_qp_offset=-3 / threads=32 / lookahead_threads=4 / sliced_threads=0 / nr=0 / decimate=1 / interlaced=0 / bluray_compat=0 / constrained_intra=0 / bframes=3 / b_pyramid=2 / b_adapt=2 / b_bias=0 / direct=3 / weightb=1 / open_gop=0 / weightp=2 / keyint=250 / keyint_min=25 / scenecut=40 / intra_refresh=0 / rc_lookahead=50 / rc=2pass / mbtree=1 / bitrate=2500 / ratetol=1.0 / qcomp=0.60 / qpmin=0 / qpmax=69 / qpstep=4 / cplxblur=20.0 / qblur=0.5 / vbv_maxrate=31250 / vbv_bufsize=31250 / nal_hrd=none / filler=0 / ip_ratio=1.40 / aq=3:1.00
    Default : Yes
    Forced : No

    Audio #1
    ID : 2
    Format : AC-3
    Format/Info : Audio Coding 3
    Codec ID : A_AC3
    Duration : 1 h 27 min
    Bit rate mode : Constant
    Bit rate : 192 kb/s
    Channel(s) : 2 channels
    Channel positions : Front: L R
    Sampling rate : 48.0 kHz
    Frame rate : 31.250 FPS (1536 SPF)
    Bit depth : 16 bits
    Compression mode : Lossy
    Stream size : 120 MiB (6%)
    Title : Thai Rong 2.0 Modified By Scarlett98
    Language : Thai
    Service kind : Complete Main
    Default : Yes
    Forced : No

    Audio #2
    ID : 3
    Format : AC-3
    Format/Info : Audio Coding 3
    Codec ID : A_AC3
    Duration : 1 h 27 min
    Bit rate mode : Constant
    Bit rate : 640 kb/s
    Channel(s) : 6 channels
    Channel positions : Front: L C R, Side: L R, LFE
    Sampling rate : 48.0 kHz
    Frame rate : 31.250 FPS (1536 SPF)
    Bit depth : 16 bits
    Compression mode : Lossy
    Stream size : 399 MiB (19%)
    Title : Cantonese
    Language : Chinese
    Service kind : Complete Main
    Default : No
    Forced : No

    Text #1
    ID : 4
    Format : UTF-8
    Codec ID : S_TEXT/UTF8
    Codec ID/Info : UTF-8 Plain Text
    Duration : 1 h 21 min
    Bit rate : 44 b/s
    Count of elements : 1013
    Stream size : 26.6 KiB (0%)
    Title : English
    Language : English
    Default : Yes
    Forced : No

    Text #2
    ID : 5
    Format : UTF-8
    Codec ID : S_TEXT/UTF8
    Codec ID/Info : UTF-8 Plain Text
    Duration : 1 h 21 min
    Bit rate : 38 b/s
    Count of elements : 1018
    Stream size : 23.1 KiB (0%)
    Title : Chinese
    Language : Chinese
    Default : No
    Forced : No











    Download: cornfile
    http://cornfile.com/c2jmucb1ooz2
    Download: mekafile
    http://www.mekafile.com/dl.php?f=oA0c38bOS2xi

  2. The Following 3 Users Say Thank You to Duckload.us For This Useful Post:

    Jodz14 (01-13-2019), NaiWan (01-10-2019), Posedon (01-13-2019)

  3. #2
    Senior Member
    Join Date
    Jun 2014
    Posts
    400
    Thanks
    0
    Thanked 0 Times in 0 Posts
    ขอบคุณครับ

  4. #3
    Senior Member Posedon's Avatar
    Join Date
    Apr 2011
    Posts
    854
    Thanks
    892
    Thanked 0 Times in 0 Posts
    Thank you very much

+ Reply to Thread

Thread Information

Users Browsing this Thread

There are currently 1 users browsing this thread. (0 members and 1 guests)

     

Posting Permissions

  • You may not post new threads
  • You may not post replies
  • You may not post attachments
  • You may not edit your posts