Sekai no chรปshin de, ai wo sakebu



Rating: 8.3/10 Year: 2004 Genres: Drama / Romance Runtime: 47 min Language: Japanese Director: n/A Writers: Kyouichi Katayama Cast: Takayuki Yamada / Haruka Ayase / Naoto Ogataโ€ฆ Plot:

"I thought I might be using a lifetime's happiness in a moment. I was that happy and she was that beautiful." A young boy stands on the red earth of Australia under its blue sky. It is 17-year-old Sakutaro Matsumoto. His time with the girl comes back to him. The colored sand runs through his hands and a tear appears on his cheek. He wakes up. It's 2004 and he is 34years old and in Japan. He thinks "I have been in a world without her for 17 years." Returning home to see his old high school for the last time before it is demolished, Saku confronts anew the loss of the love of his life, Aki, to leukemia 17 years ago. Now a medical researcher at graduate school, he has been living as if half of him died with her since then. Based on the bestselling novel that sold over 3 million copies, the past and present come together in this love story that is both pure and sad. Written by http://mydramalist.com/450-sekai-no...e-ai-wo-sakebu



ชื่อเรื่อง : Crying out Love, in the Centre of the World
นักแสดง : Yamada Takayuki, Ayase Haruka
กำกับโดย : Tsutsumi Yukihiko, Ishii Yasuharu, Hirakawa Yuichiro
จำนวนตอน: 11
ประเภท : Romance
ปีที่ออกอากาศ : 2004
ออกอากาศ :
2 ก.ค. 2004 - 10 ก.ย. 2004
ออกอากาศช่อง TBS ทุกวันศุกร์ เวลา 22:00-22:54 น.
ออกอากาศในไทย :
วันอาทิตย์ 4 กันยายน 2005
ออกอากาศช่อง iTV ทุกวันเสาร์และวันอาทิตย์ เวลา 12:00 - 13:00 น.

ในปี ค.ศ. 2004 มัตสุโมโตะ ซากุทาโร่ ชายวัย 34 ปีที่ยังคงมีความทรงจำเกี่ยวกับรักครั้งแรกของเขาเมื ่อ 17 ปีก่อน
เป็นความรักที่มิอาจลบเลือนไปจากชีวิตของเขาได้ ตลอดเวลาที่ผ่านมาเขาได้พกขวดแก้วใบเล็กที่บรรจุอัฐิ ของแฟนสาว ฮิโรเสะ อากิ
ที่เสียชีวิตด้วยโรคมะเร็งในเม็ดเลือดขาวเมื่อ 17 ปีที่แล้ว
ความทรงจำที่มิอาจลืมเลือนทำให้การใช้ชีวิตของ ซากุทาโร่ ยังคงมี อากิ อยู่ในใจและคิดถึงแต่เธอผู้เดียวเสมอมา
ถึงแม้ว่าเขาจะมีคนรักใหม่อย่าง โคบายาชิ อากิ แล้วก็ตาม

General
Unique ID : 137036953207405171382061223718971316222 (0x67185B6F4B76000D1395B514EE3517FE)
Complete name : C:UsersBabeDownloadsTorrentUploadCrying Out Love In The Center Of The World [2004]Crying.Out.Love.In.The.Center.Of.The.World.2004.E0 1.1080P.Bluray.Ac3.X264-Estb-1.mkv
Format : Matroska
Format version : Version 4
File size : 1.11 GiB
Duration : 46 min 46 s
Overall bit rate : 3 409 kb/s
Encoded date : UTC 2018-11-06 07:27:08
Writing application : mkvmerge v28.2.0 ( The Awakening ) 64-bit
Writing library : libebml v1.3.6 + libmatroska v1.4.9
Cover : Yes
Attachments : cover

Video
ID : 1
Format : AVC
Format/Info : Advanced Video Codec
Format profile : [email protected]
Format settings : CABAC / 4 Ref Frames
Format settings, CABAC : Yes
Format settings, ReFrames : 4 frames
Codec ID : V_MPEG4/ISO/AVC
Duration : 46 min 46 s
Bit rate : 2 900 kb/s
Width : 1 920 pixels
Height : 1 080 pixels
Display aspect ratio : 16:9
Frame rate mode : Constant
Frame rate : 29.970 (30000/1001) FPS
Color space : YUV
Chroma subsampling : 4:2:0
Bit depth : 8 bits
Scan type : Progressive
Bits/(Pixel*Frame) : 0.047
Stream size : 971 MiB (85%)
Title : x264 @ 2.9 Mbps
Writing library : x264 core 155 r2901 7d0ff22
Encoding settings : cabac=1 / ref=2 / deblock=1:0:0 / analyse=0x1:0x111 / me=hex / subme=6 / psy=1 / psy_rd=1.00:0.00 / mixed_ref=1 / me_range=16 / chroma_me=1 / trellis=1 / 8x8dct=0 / cqm=0 / deadzone=21,11 / fast_pskip=1 / chroma_qp_offset=-2 / threads=6 / lookahead_threads=1 / sliced_threads=0 / nr=0 / decimate=1 / interlaced=0 / bluray_compat=0 / constrained_intra=0 / bframes=3 / b_pyramid=2 / b_adapt=1 / b_bias=0 / direct=1 / weightb=1 / open_gop=0 / weightp=1 / keyint=300 / keyint_min=30 / scenecut=40 / intra_refresh=0 / rc_lookahead=30 / rc=2pass / mbtree=1 / bitrate=2900 / ratetol=1.0 / qcomp=0.60 / qpmin=0 / qpmax=69 / qpstep=4 / cplxblur=20.0 / qblur=0.5 / vbv_maxrate=20000 / vbv_bufsize=25000 / nal_hrd=none / filler=0 / ip_ratio=1.40 / aq=1:1.00
Language : Japanese
Default : Yes
Forced : No
Color range : Limited
Color primaries : BT.709
Transfer characteristics : BT.709
Matrix coefficients : BT.709

Audio
ID : 2
Format : AC-3
Format/Info : Audio Coding 3
Commercial name : Dolby Digital
Codec ID : A_AC3
Duration : 46 min 46 s
Bit rate mode : Constant
Bit rate : 448 kb/s
Channel(s) : 2 channels
Channel layout : L R
Sampling rate : 48.0 kHz
Frame rate : 31.250 FPS (1536 SPF)
Bit depth : 16 bits
Compression mode : Lossy
Stream size : 150 MiB (13%)
Title : AC3 448 Kbps 2CH
Language : Japanese
Service kind : Complete Main
Default : Yes
Forced : No

Text #1
ID : 3
Format : VobSub
Muxing mode : zlib
Codec ID : S_VOBSUB
Codec ID/Info : Picture based subtitle format used on DVDs
Duration : 45 min 50 s
Bit rate : 7 911 b/s
Count of elements : 420
Stream size : 2.59 MiB (0%)
Title : 1080p
Language : Thai
Default : Yes
Forced : No

Text #2
ID : 4
Format : PGS
Muxing mode : zlib
Codec ID : S_HDMV/PGS
Codec ID/Info : Picture based subtitle format used on BDs/HD-DVDs
Duration : 45 min 50 s
Bit rate : 29.0 kb/s
Count of elements : 840
Stream size : 9.52 MiB (1%)
Title : PGS by EVILexe
Language : Thai
Default : No
Forced : No

Text #3
ID : 5
Format : PGS
Muxing mode : zlib
Codec ID : S_HDMV/PGS
Codec ID/Info : Picture based subtitle format used on BDs/HD-DVDs
Duration : 46 min 38 s
Bit rate : 93.9 kb/s
Count of elements : 1965
Stream size : 31.3 MiB (3%)
Title : PGS
Language : Japanese
Default : No
Forced : No



http://www.filecondo.com/dl.php?f=Xafe141GkFBj