1080p BDRM Remux Full Bitrate

Executive.Decision.1996 [email protected]
Format : Matroska
Format version : Version 4 / Version 2
File size : 32.8 GiB
Duration : 2 h 12 min
Overall bit rate mode : Variable
Overall bit rate : 35.3 Mb/s
Movie name : Executive.Decision.1996 [email protected]
Encoded date : UTC 2018-09-02 05:34:03
Writing application : mkvmerge v20.0.0 ('I Am The Sun') 64-bit
Writing library : libebml v1.3.5 + libmatroska v1.4.8
Cover : Yes
Attachments : cover.jpg

Video
ID : 1
Format : AVC
Format/Info : Advanced Video Codec
Format profile : [email protected]
Format settings, CABAC : Yes
Format settings, RefFrames : 2 frames
Codec ID : V_MPEG4/ISO/AVC
Duration : 2 h 12 min
Bit rate mode : Variable
Bit rate : 30.5 Mb/s
Width : 1 920 pixels
Height : 1 080 pixels

Display aspect ratio : 16:9
Frame rate mode : Constant
Frame rate : 23.976 (24000/1001) FPS
Color space : YUV
Chroma subsampling : 4:2:0
Bit depth : 8 bits
Scan type : Progressive
Bits/(Pixel*Frame) : 0.614
Stream size : 28.3 GiB (86%)
Title : @@[email protected]@
Language : English
Default : Yes
Forced : No

Audio #1
ID : 2
Format : AC-3
Format/Info : Audio Coding 3
Format settings, Endianness : Big
Codec ID : A_AC3
Duration : 2 h 12 min
Bit rate mode : Constant
Bit rate : 448 kb/s
Channel(s) : 6 channels
Channel positions : Front: L C R, Side: L R, LFE
Sampling rate : 48.0 kHz
Frame rate : 31.250 FPS (1536 SPF)
Bit depth : 16 bits
Compression mode : Lossy
Stream size : 425 MiB (1%)
Title : Thai AC3 5.1 MASTER
Language : Thai

Service kind : Complete Main
Default : Yes
Forced : Yes

Audio #2
ID : 3
Format : DTS
Format/Info : Digital Theater Systems
Format profile : MA / Core
Mode : 16
Format settings, Endianness : Big
Codec ID : A_DTS
Duration : 2 h 12 min
Bit rate mode : Variable / Constant
Bit rate : 4 235 kb/s / 1 509 kb/s
Channel(s) : 6 channels
Channel positions : Front: L C R, Side: L R, LFE
Sampling rate : 48.0 kHz
Frame rate : 93.750 FPS (512 SPF)
Bit depth : 24 bits
Compression mode : Lossless / Lossy
Stream size : 3.93 GiB (12%)
Title : Eng DTS-HD MA 5.1
Language : English

Default : No
Forced : No

Text #1
ID : 4
Format : PGS
Muxing mode : zlib
Codec ID : S_HDMV/PGS
Codec ID/Info : Picture based subtitle format used on BDs/HD-DVDs
Duration : 2 h 10 min
Bit rate : 23.8 kb/s
Count of elements : 2954
Stream size : 22.3 MiB (0%)
Title : Eng
Language : English
Default : No
Forced : No

Text #2
ID : 5
Format : UTF-8
Codec ID : S_TEXT/UTF8
Codec ID/Info : UTF-8 Plain Text
Duration : 2 h 10 min
Bit rate : 42 b/s
Count of elements : 1468
Stream size : 41.1 KiB (0%)
Title : Eng
Language : English
Default : No
Forced : No

Text #3
ID : 6
Format : PGS
Muxing mode : zlib
Codec ID : S_HDMV/PGS
Codec ID/Info : Picture based subtitle format used on BDs/HD-DVDs
Duration : 2 h 6 min
Bit rate : 31.5 kb/s
Count of elements : 2892
Stream size : 28.6 MiB (0%)
Title : Thai PGS Tahoma
Language : Thai

Default : No
Forced : No

Text #4
ID : 7
Format : PGS
Muxing mode : zlib
Codec ID : S_HDMV/PGS
Codec ID/Info : Picture based subtitle format used on BDs/HD-DVDs
Duration : 2 h 6 min
Bit rate : 31.5 kb/s
Count of elements : 2892
Stream size : 28.6 MiB (0%)
Title : Thai PGS Tahoma LOW
Language : Thai
Default : No
Forced : No

Text #5
ID : 8
Format : PGS
Muxing mode : zlib
Codec ID : S_HDMV/PGS
Codec ID/Info : Picture based subtitle format used on BDs/HD-DVDs
Duration : 2 h 6 min
Bit rate : 36.5 kb/s
Count of elements : 2892
Stream size : 33.1 MiB (0%)
Title : Thai PGS Cordia
Language : Thai

Default : No
Forced : No

Text #6
ID : 9
Format : PGS
Muxing mode : zlib
Codec ID : S_HDMV/PGS
Codec ID/Info : Picture based subtitle format used on BDs/HD-DVDs
Duration : 2 h 6 min
Bit rate : 36.5 kb/s
Count of elements : 2892
Stream size : 33.1 MiB (0%)
Title : Thai PGS Cordia LOW
Language : Thai
Default : No
Forced : No

Text #7
ID : 10
Format : PGS
Muxing mode : zlib
Codec ID : S_HDMV/PGS
Codec ID/Info : Picture based subtitle format used on BDs/HD-DVDs
Duration : 2 h 6 min
Bit rate : 39.0 kb/s
Count of elements : 2892
Stream size : 35.4 MiB (0%)
Title : Thai PGS Angsana
Language : Thai

Default : Yes
Forced : Yes

Text #8
ID : 11
Format : PGS
Muxing mode : zlib
Codec ID : S_HDMV/PGS
Codec ID/Info : Picture based subtitle format used on BDs/HD-DVDs
Duration : 2 h 6 min
Bit rate : 39.0 kb/s
Count of elements : 2892
Stream size : 35.4 MiB (0%)
Title : Thai PGS Angsana LOW
Language : Thai
Default : No
Forced : No

Text #9
ID : 12
Format : VobSub
Muxing mode : zlib
Codec ID : S_VOBSUB
Codec ID/Info : Picture based subtitle format used on DVDs
Duration : 2 h 6 min
Bit rate : 8 371 b/s
Count of elements : 1446
Stream size : 7.60 MiB (0%)
Title : Thai 1080p
Language : Thai
Default : No
Forced : No

Text #10
ID : 13
Format : VobSub
Muxing mode : zlib
Codec ID : S_VOBSUB
Codec ID/Info : Picture based subtitle format used on DVDs
Duration : 2 h 6 min
Bit rate : 8 371 b/s
Count of elements : 1446
Stream size : 7.60 MiB (0%)
Title : Thai 1080p LOW
Language : Thai
Default : No
Forced : No

Text #11
ID : 14
Format : VobSub
Muxing mode : zlib
Codec ID : S_VOBSUB
Codec ID/Info : Picture based subtitle format used on DVDs
Duration : 2 h 6 min
Bit rate : 2 555 b/s
Count of elements : 1446
Stream size : 2.32 MiB (0%)
Title : Thai 480p
Language : Thai
Default : No
Forced : No

Text #12
ID : 15
Format : VobSub
Muxing mode : zlib
Codec ID : S_VOBSUB
Codec ID/Info : Picture based subtitle format used on DVDs
Duration : 2 h 6 min
Bit rate : 2 555 b/s
Count of elements : 1446
Stream size : 2.32 MiB (0%)
Title : Thai 480p LOW
Language : Thai
Default : No
Forced : No

***MODIFIED BY @ENTHD***














1080p FULL HD

Executive.Decision.1996 [email protected]
Format : Matroska
Format version : Version 4 / Version 2
File size : 15.8 GiB
Duration : 2 h 12 min
Overall bit rate : 17.0 Mb/s
Movie name : Executive.Decision.1996 [email protected]
Encoded date : UTC 2018-09-02 06:06:39
Writing application : mkvmerge v20.0.0 ('I Am The Sun') 64-bit
Writing library : libebml v1.3.5 + libmatroska v1.4.8
Cover : Yes
Attachments : cover.jpg

Video
ID : 1
Format : AVC
Format/Info : Advanced Video Codec
Format profile : [email protected]
Format settings, CABAC : Yes
Format settings, RefFrames : 5 frames
Codec ID : V_MPEG4/ISO/AVC
Duration : 2 h 12 min
Bit rate : 12.2 Mb/s
Width : 1 920 pixels
Height : 800 pixels

Display aspect ratio : 2.40:1
Frame rate mode : Constant
Frame rate : 23.976 FPS
Color space : YUV
Chroma subsampling : 4:2:0
Bit depth : 8 bits
Scan type : Progressive
Bits/(Pixel*Frame) : 0.331
Stream size : 11.3 GiB (72%)
Title : @@[email protected]@
Writing library : x264 core 116 r2044 392e762
Encoding settings : cabac=1 / ref=5 / deblock=1:-3:-3 / analyse=0x3:0x113 / me=umh / subme=10 / psy=1 / psy_rd=1.05:0.10 / mixed_ref=1 / me_range=48 / chroma_me=1 / trellis=2 / 8x8dct=1 / cqm=2 / deadzone=21,11 / fast_pskip=0 / chroma_qp_offset=-2 / threads=8 / sliced_threads=0 / nr=0 / decimate=1 / interlaced=0 / bluray_compat=0 / constrained_intra=0 / bframes=6 / b_pyramid=2 / b_adapt=2 / b_bias=0 / direct=3 / weightb=1 / open_gop=0 / weightp=2 / keyint=250 / keyint_min=23 / scenecut=40 / intra_refresh=0 / rc_lookahead=60 / rc=2pass / mbtree=1 / bitrate=12190 / ratetol=1.0 / qcomp=0.70 / qpmin=1 / qpmax=63 / qpstep=4 / cplxblur=20.0 / qblur=0.5 / vbv_maxrate=40000 / vbv_bufsize=40000 / nal_hrd=none / ip_ratio=1.40 / aq=2:0.80
Language : English
Default : No
Forced : No

Audio #1
ID : 2
Format : AC-3
Format/Info : Audio Coding 3
Format settings, Endianness : Big
Codec ID : A_AC3
Duration : 2 h 12 min
Bit rate mode : Constant
Bit rate : 448 kb/s
Channel(s) : 6 channels
Channel positions : Front: L C R, Side: L R, LFE
Sampling rate : 48.0 kHz
Frame rate : 31.250 FPS (1536 SPF)
Bit depth : 16 bits
Compression mode : Lossy
Stream size : 425 MiB (3%)
Title : Thai AC3 5.1 MASTER
Language : Thai

Service kind : Complete Main
Default : Yes
Forced : Yes

Audio #2
ID : 3
Format : DTS
Format/Info : Digital Theater Systems
Format profile : MA / Core
Mode : 16
Format settings, Endianness : Big
Codec ID : A_DTS
Duration : 2 h 12 min
Bit rate mode : Variable / Constant
Bit rate : 4 235 kb/s / 1 509 kb/s
Channel(s) : 6 channels
Channel positions : Front: L C R, Side: L R, LFE
Sampling rate : 48.0 kHz
Frame rate : 93.750 FPS (512 SPF)
Bit depth : 24 bits
Compression mode : Lossless / Lossy
Stream size : 3.93 GiB (25%)
Title : Eng DTS-HD MA 5.1
Language : English

Default : No
Forced : No

Text #1
ID : 4
Format : PGS
Muxing mode : zlib
Codec ID : S_HDMV/PGS
Codec ID/Info : Picture based subtitle format used on BDs/HD-DVDs
Duration : 2 h 10 min
Bit rate : 23.8 kb/s
Count of elements : 2954
Stream size : 22.3 MiB (0%)
Title : Eng
Language : English
Default : No
Forced : No

Text #2
ID : 5
Format : UTF-8
Codec ID : S_TEXT/UTF8
Codec ID/Info : UTF-8 Plain Text
Duration : 2 h 10 min
Bit rate : 42 b/s
Count of elements : 1468
Stream size : 41.1 KiB (0%)
Title : Eng
Language : English
Default : No
Forced : No

Text #3
ID : 6
Format : PGS
Muxing mode : zlib
Codec ID : S_HDMV/PGS
Codec ID/Info : Picture based subtitle format used on BDs/HD-DVDs
Duration : 2 h 6 min
Bit rate : 31.5 kb/s
Count of elements : 2892
Stream size : 28.6 MiB (0%)
Title : Thai PGS Tahoma
Language : Thai

Default : No
Forced : No

Text #4
ID : 7
Format : PGS
Muxing mode : zlib
Codec ID : S_HDMV/PGS
Codec ID/Info : Picture based subtitle format used on BDs/HD-DVDs
Duration : 2 h 6 min
Bit rate : 31.5 kb/s
Count of elements : 2892
Stream size : 28.6 MiB (0%)
Title : Thai PGS Tahoma LOW
Language : Thai
Default : No
Forced : No

Text #5
ID : 8
Format : PGS
Muxing mode : zlib
Codec ID : S_HDMV/PGS
Codec ID/Info : Picture based subtitle format used on BDs/HD-DVDs
Duration : 2 h 6 min
Bit rate : 36.5 kb/s
Count of elements : 2892
Stream size : 33.1 MiB (0%)
Title : Thai PGS Cordia
Language : Thai

Default : No
Forced : No

Text #6
ID : 9
Format : PGS
Muxing mode : zlib
Codec ID : S_HDMV/PGS
Codec ID/Info : Picture based subtitle format used on BDs/HD-DVDs
Duration : 2 h 6 min
Bit rate : 36.5 kb/s
Count of elements : 2892
Stream size : 33.1 MiB (0%)
Title : Thai PGS Cordia LOW
Language : Thai
Default : No
Forced : No

Text #7
ID : 10
Format : PGS
Muxing mode : zlib
Codec ID : S_HDMV/PGS
Codec ID/Info : Picture based subtitle format used on BDs/HD-DVDs
Duration : 2 h 6 min
Bit rate : 39.0 kb/s
Count of elements : 2892
Stream size : 35.4 MiB (0%)
Title : Thai PGS Angsana
Language : Thai

Default : Yes
Forced : Yes

Text #8
ID : 11
Format : PGS
Muxing mode : zlib
Codec ID : S_HDMV/PGS
Codec ID/Info : Picture based subtitle format used on BDs/HD-DVDs
Duration : 2 h 6 min
Bit rate : 39.0 kb/s
Count of elements : 2892
Stream size : 35.4 MiB (0%)
Title : Thai PGS Angsana LOW
Language : Thai
Default : No
Forced : No

Text #9
ID : 12
Format : VobSub
Muxing mode : zlib
Codec ID : S_VOBSUB
Codec ID/Info : Picture based subtitle format used on DVDs
Duration : 2 h 6 min
Bit rate : 8 371 b/s
Count of elements : 1446
Stream size : 7.60 MiB (0%)
Title : Thai 1080p
Language : Thai
Default : No
Forced : No

Text #10
ID : 13
Format : VobSub
Muxing mode : zlib
Codec ID : S_VOBSUB
Codec ID/Info : Picture based subtitle format used on DVDs
Duration : 2 h 6 min
Bit rate : 8 371 b/s
Count of elements : 1446
Stream size : 7.60 MiB (0%)
Title : Thai 1080p LOW
Language : Thai
Default : No
Forced : No

Text #11
ID : 14
Format : VobSub
Muxing mode : zlib
Codec ID : S_VOBSUB
Codec ID/Info : Picture based subtitle format used on DVDs
Duration : 2 h 6 min
Bit rate : 2 555 b/s
Count of elements : 1446
Stream size : 2.32 MiB (0%)
Title : Thai 480p
Language : Thai
Default : No
Forced : No

Text #12
ID : 15
Format : VobSub
Muxing mode : zlib
Codec ID : S_VOBSUB
Codec ID/Info : Picture based subtitle format used on DVDs
Duration : 2 h 6 min
Bit rate : 2 555 b/s
Count of elements : 1446
Stream size : 2.32 MiB (0%)
Title : Thai 480p LOW
Language : Thai
Default : No
Forced : No

***MODIFIED BY @ENTHD***






1080p Mini HD

Executive.Decision.1996 [email protected]
Format : Matroska
Format version : Version 4 / Version 2
File size : 5.24 GiB
Duration : 2 h 12 min
Overall bit rate : 5 655 kb/s
Movie name : Executive.Decision.1996 [email protected]
Encoded date : UTC 2018-09-02 03:35:59
Writing application : mkvmerge v18.0.0 ('Apricity') 64-bit
Writing library : libebml v1.3.5 + libmatroska v1.4.8
Cover : Yes
Attachments : cover.jpg

Video
ID : 1
Format : AVC
Format/Info : Advanced Video Codec
Format profile : [email protected]
Format settings, CABAC : Yes
Format settings, RefFrames : 5 frames
Codec ID : V_MPEG4/ISO/AVC
Duration : 2 h 12 min
Bit rate : 4 333 kb/s
Width : 1 920 pixels
Height : 800 pixels

Display aspect ratio : 2.40:1
Frame rate mode : Constant
Frame rate : 23.976 (24000/1001) FPS
Color space : YUV
Chroma subsampling : 4:2:0
Bit depth : 8 bits
Scan type : Progressive
Bits/(Pixel*Frame) : 0.118
Stream size : 4.01 GiB (77%)
Title : @@[email protected]@
Writing library : x264 core 124 r2197 69a0443
Encoding settings : cabac=1 / ref=5 / deblock=1:-3:-2 / analyse=0x3:0x133 / me=umh / subme=10 / psy=1 / psy_rd=1.00:0.10 / mixed_ref=1 / me_range=32 / chroma_me=1 / trellis=2 / 8x8dct=1 / cqm=0 / deadzone=21,11 / fast_pskip=0 / chroma_qp_offset=-3 / threads=6 / sliced_threads=0 / slices=4 / nr=0 / decimate=0 / interlaced=0 / bluray_compat=0 / constrained_intra=0 / bframes=5 / b_pyramid=2 / b_adapt=2 / b_bias=0 / direct=3 / weightb=1 / open_gop=0 / weightp=2 / keyint=240 / keyint_min=24 / scenecut=40 / intra_refresh=0 / rc_lookahead=60 / rc=2pass / mbtree=1 / bitrate=4333 / ratetol=2.0 / qcomp=0.60 / qpmin=0 / qpmax=51 / qpstep=4 / cplxblur=20.0 / qblur=0.5 / ip_ratio=1.40 / aq=1:1.00
Language : English
Default : Yes
Forced : No

Audio #1
ID : 2
Format : AC-3
Format/Info : Audio Coding 3
Format settings, Endianness : Big
Codec ID : A_AC3
Duration : 2 h 12 min
Bit rate mode : Constant
Bit rate : 448 kb/s
Channel(s) : 6 channels
Channel positions : Front: L C R, Side: L R, LFE
Sampling rate : 48.0 kHz
Frame rate : 31.250 FPS (1536 SPF)
Bit depth : 16 bits
Compression mode : Lossy
Stream size : 425 MiB (8%)
Title : Thai AC3 5.1 MASTER
Language : Thai

Service kind : Complete Main
Default : Yes
Forced : Yes

Audio #2
ID : 3
Format : DTS
Format/Info : Digital Theater Systems
Mode : 16
Format settings, Endianness : Big
Codec ID : A_DTS
Duration : 2 h 12 min
Bit rate mode : Constant
Bit rate : 768 kb/s
Channel(s) : 6 channels
Channel positions : Front: L C R, Side: L R, LFE
Sampling rate : 48.0 kHz
Frame rate : 93.750 FPS (512 SPF)
Bit depth : 24 bits
Compression mode : Lossy
Stream size : 729 MiB (14%)
Title : Eng DTS 5.1
Language : English
Default : No
Forced : No

Text #1
ID : 4
Format : UTF-8
Codec ID : S_TEXT/UTF8
Codec ID/Info : UTF-8 Plain Text
Duration : 2 h 10 min
Bit rate : 42 b/s
Count of elements : 1468
Stream size : 41.1 KiB (0%)
Title : Eng
Language : English
Default : No
Forced : No

Text #2
ID : 5
Format : PGS
Muxing mode : zlib
Codec ID : S_HDMV/PGS
Codec ID/Info : Picture based subtitle format used on BDs/HD-DVDs
Duration : 2 h 6 min
Bit rate : 31.5 kb/s
Count of elements : 2892
Stream size : 28.6 MiB (1%)
Title : Thai PGS Tahoma
Language : Thai

Default : No
Forced : No

Text #3
ID : 6
Format : PGS
Muxing mode : zlib
Codec ID : S_HDMV/PGS
Codec ID/Info : Picture based subtitle format used on BDs/HD-DVDs
Duration : 2 h 6 min
Bit rate : 31.5 kb/s
Count of elements : 2892
Stream size : 28.6 MiB (1%)
Title : Thai PGS Tahoma LOW
Language : Thai
Default : No
Forced : No

Text #4
ID : 7
Format : PGS
Muxing mode : zlib
Codec ID : S_HDMV/PGS
Codec ID/Info : Picture based subtitle format used on BDs/HD-DVDs
Duration : 2 h 6 min
Bit rate : 36.5 kb/s
Count of elements : 2892
Stream size : 33.1 MiB (1%)
Title : Thai PGS Cordia
Language : Thai

Default : No
Forced : No

Text #5
ID : 8
Format : PGS
Muxing mode : zlib
Codec ID : S_HDMV/PGS
Codec ID/Info : Picture based subtitle format used on BDs/HD-DVDs
Duration : 2 h 6 min
Bit rate : 36.5 kb/s
Count of elements : 2892
Stream size : 33.1 MiB (1%)
Title : Thai PGS Cordia LOW
Language : Thai
Default : No
Forced : No

Text #6
ID : 9
Format : PGS
Muxing mode : zlib
Codec ID : S_HDMV/PGS
Codec ID/Info : Picture based subtitle format used on BDs/HD-DVDs
Duration : 2 h 6 min
Bit rate : 39.0 kb/s
Count of elements : 2892
Stream size : 35.4 MiB (1%)
Title : Thai PGS Angsana
Language : Thai

Default : Yes
Forced : Yes

Text #7
ID : 10
Format : PGS
Muxing mode : zlib
Codec ID : S_HDMV/PGS
Codec ID/Info : Picture based subtitle format used on BDs/HD-DVDs
Duration : 2 h 6 min
Bit rate : 39.0 kb/s
Count of elements : 2892
Stream size : 35.4 MiB (1%)
Title : Thai PGS Angsana LOW
Language : Thai
Default : No
Forced : No

Text #8
ID : 11
Format : VobSub
Muxing mode : zlib
Codec ID : S_VOBSUB
Codec ID/Info : Picture based subtitle format used on DVDs
Duration : 2 h 6 min
Bit rate : 8 371 b/s
Count of elements : 1446
Stream size : 7.60 MiB (0%)
Title : Thai 1080p
Language : Thai
Default : No
Forced : No

Text #9
ID : 12
Format : VobSub
Muxing mode : zlib
Codec ID : S_VOBSUB
Codec ID/Info : Picture based subtitle format used on DVDs
Duration : 2 h 6 min
Bit rate : 8 371 b/s
Count of elements : 1446
Stream size : 7.60 MiB (0%)
Title : Thai 1080p LOW
Language : Thai
Default : No
Forced : No

Text #10
ID : 13
Format : VobSub
Muxing mode : zlib
Codec ID : S_VOBSUB
Codec ID/Info : Picture based subtitle format used on DVDs
Duration : 2 h 6 min
Bit rate : 2 555 b/s
Count of elements : 1446
Stream size : 2.32 MiB (0%)
Title : Thai 480p
Language : Thai
Default : No
Forced : No

Text #11
ID : 14
Format : VobSub
Muxing mode : zlib
Codec ID : S_VOBSUB
Codec ID/Info : Picture based subtitle format used on DVDs
Duration : 2 h 6 min
Bit rate : 2 555 b/s
Count of elements : 1446
Stream size : 2.32 MiB (0%)
Title : Thai 480p LOW
Language : Thai
Default : No
Forced : No

***MODIFIED BY @ENTHD***






720p Mini HD

Executive.Decision.1996 [email protected]
Format : Matroska
Format version : Version 4 / Version 2
File size : 4.94 GiB
Duration : 2 h 12 min
Overall bit rate : 5 326 kb/s
Movie name : Executive.Decision.1996 [email protected]
Encoded date : UTC 2018-09-02 06:35:06
Writing application : mkvmerge v20.0.0 ('I Am The Sun') 64-bit
Writing library : libebml v1.3.5 + libmatroska v1.4.8
Cover : Yes
Attachments : cover.jpg

Video
ID : 1
Format : AVC
Format/Info : Advanced Video Codec
Format profile : [email protected]
Format settings, CABAC : Yes
Format settings, RefFrames : 5 frames
Codec ID : V_MPEG4/ISO/AVC
Duration : 2 h 12 min
Bit rate : 4 386 kb/s
Width : 1 280 pixels
Height : 536 pixels

Display aspect ratio : 2.40:1
Frame rate mode : Constant
Frame rate : 23.976 (24000/1001) FPS
Color space : YUV
Chroma subsampling : 4:2:0
Bit depth : 8 bits
Scan type : Progressive
Bits/(Pixel*Frame) : 0.267
Stream size : 4.06 GiB (82%)
Title : @@[email protected]@
Writing library : x264 core 116 r2044 392e762
Encoding settings : cabac=1 / ref=5 / deblock=1:0:0 / analyse=0x3:0x113 / me=umh / subme=8 / psy=1 / psy_rd=1.00:0.00 / mixed_ref=1 / me_range=16 / chroma_me=1 / trellis=1 / 8x8dct=1 / cqm=0 / deadzone=21,11 / fast_pskip=1 / chroma_qp_offset=-2 / threads=12 / sliced_threads=0 / nr=0 / decimate=1 / interlaced=0 / bluray_compat=0 / constrained_intra=0 / bframes=3 / b_pyramid=2 / b_adapt=2 / b_bias=0 / direct=3 / weightb=1 / open_gop=0 / weightp=2 / keyint=240 / keyint_min=24 / scenecut=40 / intra_refresh=0 / rc_lookahead=50 / rc=2pass / mbtree=1 / bitrate=4386 / ratetol=1.0 / qcomp=0.60 / qpmin=0 / qpmax=69 / qpstep=4 / cplxblur=20.0 / qblur=0.5 / ip_ratio=1.40 / aq=1:1.00
Language : English
Default : Yes
Forced : No

Audio #1
ID : 2
Format : AC-3
Format/Info : Audio Coding 3
Format settings, Endianness : Big
Codec ID : A_AC3
Duration : 2 h 12 min
Bit rate mode : Constant
Bit rate : 448 kb/s
Channel(s) : 6 channels
Channel positions : Front: L C R, Side: L R, LFE
Sampling rate : 48.0 kHz
Frame rate : 31.250 FPS (1536 SPF)
Bit depth : 16 bits
Compression mode : Lossy
Stream size : 425 MiB (8%)
Title : Thai AC3 5.1 MASTER
Language : Thai

Service kind : Complete Main
Default : Yes
Forced : Yes

Audio #2
ID : 3
Format : AC-3
Format/Info : Audio Coding 3
Format settings, Endianness : Big
Codec ID : A_AC3
Duration : 2 h 12 min
Bit rate mode : Constant
Bit rate : 384 kb/s
Channel(s) : 6 channels
Channel positions : Front: L C R, Side: L R, LFE
Sampling rate : 48.0 kHz
Frame rate : 31.250 FPS (1536 SPF)
Bit depth : 16 bits
Compression mode : Lossy
Stream size : 364 MiB (7%)
Title : Eng AC3 5.1
Language : English
Service kind : Complete Main
Default : No
Forced : No

Text #1
ID : 4
Format : UTF-8
Codec ID : S_TEXT/UTF8
Codec ID/Info : UTF-8 Plain Text
Duration : 2 h 10 min
Bit rate : 42 b/s
Count of elements : 1468
Stream size : 41.1 KiB (0%)
Title : Eng
Language : English
Default : No
Forced : No

Text #2
ID : 5
Format : PGS
Muxing mode : zlib
Codec ID : S_HDMV/PGS
Codec ID/Info : Picture based subtitle format used on BDs/HD-DVDs
Duration : 2 h 6 min
Bit rate : 31.5 kb/s
Count of elements : 2892
Stream size : 28.6 MiB (1%)
Title : Thai PGS Tahoma
Language : Thai

Default : No
Forced : No

Text #3
ID : 6
Format : PGS
Muxing mode : zlib
Codec ID : S_HDMV/PGS
Codec ID/Info : Picture based subtitle format used on BDs/HD-DVDs
Duration : 2 h 6 min
Bit rate : 31.5 kb/s
Count of elements : 2892
Stream size : 28.6 MiB (1%)
Title : Thai PGS Tahoma LOW
Language : Thai
Default : No
Forced : No

Text #4
ID : 7
Format : PGS
Muxing mode : zlib
Codec ID : S_HDMV/PGS
Codec ID/Info : Picture based subtitle format used on BDs/HD-DVDs
Duration : 2 h 6 min
Bit rate : 36.5 kb/s
Count of elements : 2892
Stream size : 33.1 MiB (1%)
Title : Thai PGS Cordia
Language : Thai

Default : No
Forced : No

Text #5
ID : 8
Format : PGS
Muxing mode : zlib
Codec ID : S_HDMV/PGS
Codec ID/Info : Picture based subtitle format used on BDs/HD-DVDs
Duration : 2 h 6 min
Bit rate : 36.5 kb/s
Count of elements : 2892
Stream size : 33.1 MiB (1%)
Title : Thai PGS Cordia LOW
Language : Thai
Default : No
Forced : No

Text #6
ID : 9
Format : PGS
Muxing mode : zlib
Codec ID : S_HDMV/PGS
Codec ID/Info : Picture based subtitle format used on BDs/HD-DVDs
Duration : 2 h 6 min
Bit rate : 39.0 kb/s
Count of elements : 2892
Stream size : 35.4 MiB (1%)
Title : Thai PGS Angsana
Language : Thai

Default : Yes
Forced : Yes

Text #7
ID : 10
Format : PGS
Muxing mode : zlib
Codec ID : S_HDMV/PGS
Codec ID/Info : Picture based subtitle format used on BDs/HD-DVDs
Duration : 2 h 6 min
Bit rate : 39.0 kb/s
Count of elements : 2892
Stream size : 35.4 MiB (1%)
Title : Thai PGS Angsana LOW
Language : Thai
Default : No
Forced : No

Text #8
ID : 11
Format : VobSub
Muxing mode : zlib
Codec ID : S_VOBSUB
Codec ID/Info : Picture based subtitle format used on DVDs
Duration : 2 h 6 min
Bit rate : 8 371 b/s
Count of elements : 1446
Stream size : 7.60 MiB (0%)
Title : Thai 1080p
Language : Thai
Default : No
Forced : No

Text #9
ID : 12
Format : VobSub
Muxing mode : zlib
Codec ID : S_VOBSUB
Codec ID/Info : Picture based subtitle format used on DVDs
Duration : 2 h 6 min
Bit rate : 8 371 b/s
Count of elements : 1446
Stream size : 7.60 MiB (0%)
Title : Thai 1080p LOW
Language : Thai
Default : No
Forced : No

Text #10
ID : 13
Format : VobSub
Muxing mode : zlib
Codec ID : S_VOBSUB
Codec ID/Info : Picture based subtitle format used on DVDs
Duration : 2 h 6 min
Bit rate : 2 555 b/s
Count of elements : 1446
Stream size : 2.32 MiB (0%)
Title : Thai 480p
Language : Thai
Default : No
Forced : No

Text #11
ID : 14
Format : VobSub
Muxing mode : zlib
Codec ID : S_VOBSUB
Codec ID/Info : Picture based subtitle format used on DVDs
Duration : 2 h 6 min
Bit rate : 2 555 b/s
Count of elements : 1446
Stream size : 2.32 MiB (0%)
Title : Thai 480p LOW
Language : Thai
Default : No
Forced : No

***MODIFIED BY @ENTHD***




แก๊สพิษ DZ-5 ที่มีอานุภาพร้ายแรงในการคร่าชีวิตคน สารละลายเพียง 1 หยด สามารถทำให้คนตายได้หลายร้อยคน ถูกจารกรรมโดยผู้ก่อการร้าย ระหว่างการขนส่งแก๊สพิษนี้ข้ามประเทศ ทางรัฐบาลสหรัฐพยายามอย่างเต็มที่ที่จะค้นหาและนำแก็ สพิษนี้กลับคืนมาให้ได้แต่ไม่สำเร็จ ต่อมา….ทางรัฐบาลสหรัฐได้รับการติดต่อจากเครื่องบินโ บอิ้ง 747 ของสายการบิน Oceanic ว่า เครื่องบินลำนี้ถูกยึดโดยผู้ก่อการร้ายและในเครื่องบ ินลำนี้ มีแก็สพิษ DZ-5 ที่สูญหายไป บรรทุกอยู่เต็มลำ เป้าหมายคือ บินเข้าเขตน่านฟ้าสหรัฐและระเบิดเครอื่งบินเพื่อให้แ ก็สพิษดังกล่าวฟุ้งกระจายทั่วน่านฟ้าสหรัฐ หากสหรัฐไม่ยอมปล่อยตัวผู้นำของกลุ่มผู่ก่อการร้ายที ่ถูกจับตัวไป ทีมกู้เครื่องบินเฉพาะกิจถูกส่งขึ้นไปปฎิบัติงานทันท ี โดยมีเวลาเพียงไม่กี่ชั่วโมง เพราะถ้าหากปฏิบัติการนี้ไม่สำเร็จ สหรัฐจะทำการยิงเครื่องบินลำนี้ให้ตกทันทีก่อนที่จะเ ข้าน่านฟ้าสหรัฐ ปฏิบัติการครั้งนี้นำโดยผู้การเทรวิส เพื่อยึดเครื่องบินลำดังกล่าวให้ได้ก่อนที่จะบินเข้า น่านฟ้าสหรัฐ
แต่ปัญหาอยู่ที่ว่า พวกเขาต้องสูญเสียผู้การเทรวิส ผู้นำปฏิบัติการครั้งนี้ไป ในระหว่างที่ลักลอบขึ้นไปบนเครื่องบิน ลูกทีมเฉพาะกิจจะสามารถยึดเครื่องบินได้ทันตามเวลาที ่กำหนดหรือไม่ และพวกเขาจะทำอย่างไรกับระเบิดที่บรรจุแก็สพิษ DZ-5 ที่บรรจุอยู่บนเครื่องบินเต็มลำ…. ติดตามเรื่องราวของปฏิบัติการสุดระทึกที่จะทำให้คุณน ั่งไม่ติดเก้าอี้ ได้ใน “ยุทธการดับฟ้า “ (Executive Decision)


---------------------------------------------------------------------------------------------------------------

***ข้อแนะนำในการโหลดไฟล์จากเว็บต่างๆ***

###ควรใช้ IDM ในการโหลด และควรตั้งค่าเริ่มต้นเชื่อมต่อ ตั้งแต่ 8 ขึ้นไป ส่วนในกรณีที่ IDM ไม่ขึ้นตอนกดโหลดให้ติดตั้งส่วนขยายของ IDM ในเบราว์เซอร์ที่ใช้ ##




720p MiniHD

http://cornfile.com/1nxi8acjzish

1080p MiniHD

http://cornfile.com/3dbywch8xr23

1080p Full HD

http://cornfile.com/nj1w2r3md8bq

1080p BDRM Remux Full Bitrate

http://cornfile.com/3ocdqnl1aqeu


>>สมัคร VIP cornfile <<

>> วิธีสมัคร VIP cornfile <<


ติดตามอัพเดตเรื่องอื่นๆได้ที่

http://enthdmovieclub.blogspot.com/