+ Reply to Thread
Results 1 to 4 of 4
  1. #1
    Administrators Duckload.us's Avatar
    Join Date
    Dec 2010
    Posts
    99,791
    Thanks
    9
    Thanked 101,294 Times in 48,496 Posts

    Question [ฝรั่ง]- The African Queen (1951) นำแสดงโดยฮัมฟรีย์ โบการ์ตและแคทเธอรีน เฮปเบิร์น-MiniBD.AC-3.720p. [Modified]-[Soundtrack บรรยายไทย]




    นักแสดง -
    Humphrey Bogart ... Charlie Allnut
    Katharine Hepburn ... Rose Sayer
    Robert Morley ... Rev. Samuel Sayer
    Peter Bull ... Captain of Louisa
    Theodore Bikel ... First Officer
    Walter Gotell ... Second Officer
    Peter Swanwick ... First Officer of Shona
    Richard Marner ... Second Officer of Shona

    กำกับ - John Huston

    เขียนบท - C.S. Forester ... (novel "The African Queen")
    James Agee ... (adapted for the screen by) &
    John Huston ... (adapted for the screen by)
    John Collier ... (uncredited)
    Peter Viertel ... (uncredited)


    อำนวยการสร้าง - Sam Spiegel ... producer (as S.P. Eagle)
    John Woolf ... producer (uncredited)

    ดนตรี - Allan Gray

    ถ่ายภาพ - Jack Cardiff

    เปิดตัว - 23 December 1951 (USA)

    จัดจำหน่าย - United Artists

    ประเภท - Adventure | Romance | War

    ความยาว - 105 นาที

    IMDB rating - 8.0

    เรื่องย่อ

    September 1914, news reaches the colony German Eastern Africa that Germany is at war, so Reverend Samuel Sayer became a hostile foreigner. German imperial troops burn down his mission he is beaten and dies of fever. His well-educated, snobbish sister Rose Sayer buries him and leaves by the only available transport, the dilapidated river steamboat African Queen of grumpy Charlie Allnut. As if a long difficult journey without any comfort weren t bad enough for such odd companions, she is determined to find a way to do their bit for the British war effort (and revenge her brother) and aims high as God is obviously on their side: construct their own equipment, a torpedo and the converted steamboat, to take out a huge German warship, the Louisa, which is hard to find on the giant lake and first of all to reach, in fact as daunting an expedition as anyone attempted since the late adventurous explorer John Speakes, but she presses till Charlie accepts to steam up the Ulana, to brave...

    โรส เซเยอร์ สาวใหญ่ทึนทึกชาวอังกฤษที่เดินทางติดตามพี่ชายที่เป็ นสาธุคุณมาเผยแผ่ศาสนาในดินแดนทุรกันดานใจกลางทวีปอั ฟริกา เมื่อยุโรปประกาศสงครามโลกครั้งที่ 1 ผลของสงครามแพร่ไปไกลถึงดินแดนอาณานิคมในทวีปอัฟริกา เยอรมันพยายามบุกยึด กวาดต้อนชนพื้นเมืองไปเป็นทหาร เมื่อโบสถ์ถูกเผาทำลาย พี่ชายของโรสจึงตรอมใจตาย โรสพยายามหาทางกลับอังกฤษโดยได้รับความช่วยเหลือจากช าร์ลี ออลนัต ช่างประจำเหมืองและเจ้าของเรือ"อัฟริกัน ควีน"ผู้ที่คอยส่งเสบียงและจดหมายให้เป็นประจำ แต่เมื่อพิจารณาแล้วก็พบว่าไม่มีทางฝ่าวงล้อมของทหาร เยอรมันไปได้ จนเมื่อโรสคิดแผนสุดระห่ำที่จะประดิษฐ์ตอร์ปิโดเพื่อ ยิงถล่มเรือหลุยซ่าของเยอรมันที่คุมทะเลสาบอยู่ การผจญภัยไปตามลำน้ำของชาร์ลีและโรสจึงเริ่มขึ้น

    General
    Unique ID : 228791103902190714505585806117409582346 (0xAC1F90554AF183FD8EDDE4302BF6ED0A)
    Complete name : D:งานแปลThe African QueenThe African Queen (1951) [PROPER 1080p BluRay x264-LCHD_ซับไทยโดย shalex].mkv
    Format : Matroska
    Format version : Version 4 / Version 2
    File size : 6.58 GiB
    Duration : 1h 45mn
    Overall bit rate : 8 952 Kbps
    Movie name : The African Queen (Modified by ShAlex)
    Encoded date : UTC 2014-11-23 13:25:29
    Writing application : mkvmerge v6.2.0 ( Promised Land ) built on Apr 28 2013 12:22:01
    Writing library : libebml v1.3.0 + libmatroska v1.4.0

    Video
    ID : 1
    Format : AVC
    Format/Info : Advanced Video Codec
    Format profile : [email protected]
    Format settings, CABAC : Yes
    Format settings, ReFrames : 4 frames
    Codec ID : V_MPEG4/ISO/AVC
    Duration : 1h 45mn
    Bit rate : 8 685 Kbps
    Width : 1 488 pixels
    Height : 1 080 pixels
    Display aspect ratio : 1.378
    Frame rate mode : Constant
    Frame rate : 23.976 fps
    Color space : YUV
    Chroma subsampling : 4:2:0
    Bit depth : 8 bits
    Scan type : Progressive
    Bits/(Pixel*Frame) : 0.225
    Stream size : 6.29 GiB (96%)
    Writing library : x264 core 88 r1462 7fcffde
    Encoding settings : cabac=1 / ref=4 / deblock=1:-1:-1 / analyse=0x3:0x113 / me=umh / subme=7 / psy=1 / psy_rd=1.00:0.00 / mixed_ref=1 / me_range=16 / chroma_me=1 / trellis=2 / 8x8dct=1 / cqm=0 / deadzone=21,11 / fast_pskip=1 / chroma_qp_offset=-2 / threads=6 / sliced_threads=0 / nr=0 / decimate=1 / mbaff=0 / constrained_intra=0 / bframes=3 / b_pyramid=2 / b_adapt=2 / b_bias=0 / direct=3 / wpredb=1 / wpredp=2 / keyint=250 / keyint_min=25 / scenecut=40 / intra_refresh=0 / rc_lookahead=40 / rc=2pass / mbtree=1 / bitrate=8685 / ratetol=1.0 / qcomp=0.60 / qpmin=10 / qpmax=51 / qpstep=4 / cplxblur=20.0 / qblur=0.5 / vbv_maxrate=50000 / vbv_bufsize=50000 / ip_ratio=1.40 / aq=1:1.00
    Language : English
    Default : Yes
    Forced : Yes

    Audio
    ID : 2
    Format : AC-3
    Format/Info : Audio Coding 3
    Mode extension : CM (complete main)
    Format settings, Endianness : Big
    Codec ID : A_AC3
    Duration : 1h 45mn
    Bit rate mode : Constant
    Bit rate : 224 Kbps
    Channel count : 2 channels
    Channel positions : Front: L R
    Sampling rate : 48.0 KHz
    Bit depth : 16 bits
    Compression mode : Lossy
    Stream size : 169 MiB (3%)
    Language : English
    Default : Yes
    Forced : Yes

    Text #1
    ID : 3
    Format : PGS
    Muxing mode : zlib
    Codec ID : S_HDMV/PGS
    Codec ID/Info : The same subtitle format used on BDs/HD-DVDs
    Title : Thai PGS 1080p
    Language : Thai
    Default : Yes
    Forced : No

    Text #2
    ID : 4
    Format : PGS
    Muxing mode : zlib
    Codec ID : S_HDMV/PGS
    Codec ID/Info : The same subtitle format used on BDs/HD-DVDs
    Title : Thai PGS 720p
    Language : Thai
    Default : No
    Forced : No

    Text #3
    ID : 5
    Format : VobSub
    Muxing mode : zlib
    Codec ID : S_VOBSUB
    Codec ID/Info : The same subtitle format used on DVDs
    Title : Thai VobSub
    Language : Thai
    Default : No
    Forced : No

    Text #4
    ID : 6
    Format : UTF-8
    Codec ID : S_TEXT/UTF8
    Codec ID/Info : UTF-8 Plain Text
    Title : English SRT
    Language : English
    Default : No
    Forced : No









    Download: cornfile
    http://cornfile.com/rh8v8u0669t9
    Download: mekafile
    http://www.mekafile.com/dl.php?f=GK9450byRbV6

  2. The Following 2 Users Say Thank You to Duckload.us For This Useful Post:

    noi54 (Yesterday), Tatum03 (02-10-2019)

  3. #2
    Senior Member
    Join Date
    Jul 2012
    Posts
    5,870
    Thanks
    0
    Thanked 0 Times in 0 Posts
    ขอบคุณมากจ้า

  4. #3
    Senior Member
    Join Date
    Sep 2014
    Posts
    2,887
    Thanks
    2
    Thanked 0 Times in 0 Posts
    Thanks a bunch.

  5. #4
    Senior Member
    Join Date
    Oct 2013
    Location
    Thailand
    Posts
    1,025
    Thanks
    899
    Thanked 0 Times in 0 Posts
    ขอบคุณมาก

+ Reply to Thread

Thread Information

Users Browsing this Thread

There are currently 2 users browsing this thread. (0 members and 2 guests)

     

Posting Permissions

  • You may not post new threads
  • You may not post replies
  • You may not post attachments
  • You may not edit your posts